Добро пожаловать, Гость. Пожалуйста, войдите или зарегистрируйтесь.
14 Август 2018, 13:17:33
Новости:

Страниц: [1]   Вниз
Печать
Автор Тема: Помогите, пожалуйста с XVID 160:128  (Прочитано 6120 раз)
0 Пользователей и 1 Гость смотрят эту тему.
Zhook
Постоялец
***

Карма: +20/-0
Offline Offline

Сообщений: 137


« : 09 Июнь 2012, 21:17:16 »

Проигрыватель воспринимает кодек xvid в размере 160:128.
Есть mencoder. Как перегнать видео в avi с кодеком xvid и размером 160:128? Непонимающий
Помогите пожалуйста, а то на всех сайтах примеры с mpeg4.
Записан
Zhook
Постоялец
***

Карма: +20/-0
Offline Offline

Сообщений: 137


« Ответ #1 : 12 Июнь 2012, 09:48:12 »

Забыл указать модель проигрывателя - Explay C40  Обеспокоенный
Вот до чего уже дополз: Крутой


Код:
mencoder 1.avi -oac twolame -ovc xvid  -o out.avi -xvidencopts pass=1 -vf scale=160:128
Видео уже воспроизводится проигрывателем, но как будто при быстрой перемотке - огромными скачками Непонимающий. Аудио идёт без проблем и с нормальной скоростью.
Кто что думает по этому поводу?
Записан
Zhook
Постоялец
***

Карма: +20/-0
Offline Offline

Сообщений: 137


« Ответ #2 : 12 Июнь 2012, 09:50:39 »

С форума убунты подсказали, ка вывести инфо о файле.

Заранее благодарен за помощь. Улыбка

Вот три выхлопа:

Видео, приводимое на проигрывателе, как пример для проверки функциональности(заводское):
Код:
FFmpeg version SVN-r0.5.1-4:0.5.1-1ubuntu1.3, Copyright (c) 2000-2009 Fabrice Bellard, et al.
  configuration: --extra-version=4:0.5.1-1ubuntu1.3 --prefix=/usr --enable-avfilter --enable-avfilter-lavf --enable-vdpau --enable-bzlib --enable-libgsm --enable-libschroedinger --enable-libspeex --enable-libtheora --enable-libvorbis --enable-pthreads --enable-zlib --disable-stripping --disable-vhook --enable-runtime-cpudetect --enable-gpl --enable-postproc --enable-swscale --enable-x11grab --enable-libdc1394 --enable-shared --disable-static
  libavutil     49.15. 0 / 49.15. 0
  libavcodec    52.20. 1 / 52.20. 1
  libavformat   52.31. 0 / 52.31. 0
  libavdevice   52. 1. 0 / 52. 1. 0
  libavfilter    0. 4. 0 /  0. 4. 0
  libswscale     0. 7. 1 /  0. 7. 1
  libpostproc   51. 2. 0 / 51. 2. 0
  built on Dec 21 2011 18:37:21, gcc: 4.4.3
Input #0, avi, from 'ou4.avi':
  Duration: 00:05:27.22, start: 0.000000, bitrate: 412 kb/s
    Stream #0.0: Video: mpeg4, yuv420p, 160x128 [PAR 1:1 DAR 5:4], PAR 4096:3855 DAR 1024:771, 29.97 tbr, 29.97 tbn, 29.97 tbc
    Stream #0.1: Audio: mp2, 44100 Hz, stereo, s16, 192 kb/s
At least one output file must be specified

Видео(воспроизводится без проблем), кодировавшееся ещё в винде с прилагаемого конвертера(не работает под вайном, пробовал):

Код:
FFmpeg version SVN-r0.5.1-4:0.5.1-1ubuntu1.3, Copyright (c) 2000-2009 Fabrice Bellard, et al.
  configuration: --extra-version=4:0.5.1-1ubuntu1.3 --prefix=/usr --enable-avfilter --enable-avfilter-lavf --enable-vdpau --enable-bzlib --enable-libgsm --enable-libschroedinger --enable-libspeex --enable-libtheora --enable-libvorbis --enable-pthreads --enable-zlib --disable-stripping --disable-vhook --enable-runtime-cpudetect --enable-gpl --enable-postproc --enable-swscale --enable-x11grab --enable-libdc1394 --enable-shared --disable-static
  libavutil     49.15. 0 / 49.15. 0
  libavcodec    52.20. 1 / 52.20. 1
  libavformat   52.31. 0 / 52.31. 0
  libavdevice   52. 1. 0 / 52. 1. 0
  libavfilter    0. 4. 0 /  0. 4. 0
  libswscale     0. 7. 1 /  0. 7. 1
  libpostproc   51. 2. 0 / 51. 2. 0
  built on Dec 21 2011 18:37:21, gcc: 4.4.3
Input #0, avi, from '2.avi':
  Duration: 00:09:56.40, start: 0.000000, bitrate: 435 kb/s
    Stream #0.0: Video: mpeg4, yuv420p, 160x128 [PAR 1:1 DAR 5:4], PAR 65536:49225 DAR 16384:9845, 15 tbr, 15 tbn, 15 tbc
    Stream #0.1: Audio: mp2, 44100 Hz, stereo, s16, 128 kb/s
At least one output file must be specified

То, что получилось(то, что я писал про mencoder) у меня(воспроизводится ускоренно, с огромными скачками):
Код:
FFmpeg version SVN-r0.5.1-4:0.5.1-1ubuntu1.3, Copyright (c) 2000-2009 Fabrice Bellard, et al.
  configuration: --extra-version=4:0.5.1-1ubuntu1.3 --prefix=/usr --enable-avfilter --enable-avfilter-lavf --enable-vdpau --enable-bzlib --enable-libgsm --enable-libschroedinger --enable-libspeex --enable-libtheora --enable-libvorbis --enable-pthreads --enable-zlib --disable-stripping --disable-vhook --enable-runtime-cpudetect --enable-gpl --enable-postproc --enable-swscale --enable-x11grab --enable-libdc1394 --enable-shared --disable-static
  libavutil     49.15. 0 / 49.15. 0
  libavcodec    52.20. 1 / 52.20. 1
  libavformat   52.31. 0 / 52.31. 0
  libavdevice   52. 1. 0 / 52. 1. 0
  libavfilter    0. 4. 0 /  0. 4. 0
  libswscale     0. 7. 1 /  0. 7. 1
  libpostproc   51. 2. 0 / 51. 2. 0
  built on Dec 21 2011 18:37:21, gcc: 4.4.3
Input #0, avi, from 'ou4.avi':
  Duration: 00:05:27.22, start: 0.000000, bitrate: 412 kb/s
    Stream #0.0: Video: mpeg4, yuv420p, 160x128 [PAR 1:1 DAR 5:4], PAR 4096:3855 DAR 1024:771, 29.97 tbr, 29.97 tbn, 29.97 tbc
    Stream #0.1: Audio: mp2, 44100 Hz, stereo, s16, 192 kb/s
At least one output file must be specified

Помогите, пожалуйста. Мне в этой области под линуксом до этого копаться ещё не приходилось. Обеспокоенный
Записан
Zhook
Постоялец
***

Карма: +20/-0
Offline Offline

Сообщений: 137


« Ответ #3 : 12 Июнь 2012, 14:59:54 »

Смеющийся
Получилось!!!
Вот, с горя от всех предыдущих неудач полез потрошить прилагаемое ПО. Вот, что откопал в Converter.ini:
Код:
[Version]
Ver=1.1.1
[Quality]
Quality-1=2
Quality0=Low\Normal\High
[Types]
Types-1=1
Types=160x128\128x128
[Scale]
Scale-1=1
Scale0=16:9\4:3\Full
[parameter]
1-1-1=-ofps 15 -vf-add scale=128:128 -vf-add expand=128:128:-1:-1:1 -srate 44100 -ovc xvid -stereo 0 -xvidencopts bitrate=400:max_bframes=0:quant_type=h263:me_quality=0 -oac lavc -lavcopts acodec=mp2:abitrate=128
1-1-2=-ofps 15 -vf-add scale=128:96 -vf-add expand=128:128:-1:-1:1 -srate 44100 -ovc xvid -stereo 0 -xvidencopts bitrate=400:max_bframes=0:quant_type=h263:me_quality=0 -oac lavc -lavcopts acodec=mp2:abitrate=128
1-1-3=-ofps 15 -vf-add scale=128:72  -vf-add expand=128:128:-1:-1:1 -srate 44100 -ovc xvid -stereo 0 -xvidencopts bitrate=400:max_bframes=0:quant_type=h263:me_quality=0 -oac lavc -lavcopts acodec=mp2:abitrate=128
2-1-1=-ofps 15 -vf-add scale=128:128 -vf-add expand=128:128:-1:-1:1 -srate 44100 -ovc xvid -stereo 0 -xvidencopts bitrate=300:max_bframes=0:quant_type=h263:me_quality=0 -oac lavc -lavcopts acodec=mp2:abitrate=128
2-1-2=-ofps 15 -vf-add scale=128:96 -vf-add expand=128:128:-1:-1:1 -srate 44100 -ovc xvid -stereo 0 -xvidencopts bitrate=300:max_bframes=0:quant_type=h263:me_quality=0 -oac lavc -lavcopts acodec=mp2:abitrate=128
2-1-3=-ofps 15 -vf-add scale=128:72  -vf-add expand=128:128:-1:-1:1 -srate 44100 -ovc xvid -stereo 0 -xvidencopts bitrate=300:max_bframes=0:quant_type=h263:me_quality=0 -oac lavc -lavcopts acodec=mp2:abitrate=128
3-1-1=-ofps 15 -vf-add scale=128:128 -vf-add expand=128:128:-1:-1:1 -srate 44100 -ovc xvid -stereo 0 -xvidencopts bitrate=250:max_bframes=0:quant_type=h263:me_quality=0 -oac lavc -lavcopts acodec=mp2:abitrate=128
3-1-2=-ofps 15 -vf-add scale=128:96 -vf-add expand=128:128:-1:-1:1 -srate 44100 -ovc xvid -stereo 0 -xvidencopts bitrate=250:max_bframes=0:quant_type=h263:me_quality=0 -oac lavc -lavcopts acodec=mp2:abitrate=128
3-1-3=-ofps 15 -vf-add scale=128:72  -vf-add expand=128:128:-1:-1:1 -srate 44100 -ovc xvid -stereo 0 -xvidencopts bitrate=250:max_bframes=0:quant_type=h263:me_quality=0 -oac lavc -lavcopts acodec=mp2:abitrate=128
1-2-1=-ofps 15 -vf-add scale=160:128 -vf-add expand=160:128:-1:-1:1 -srate 44100 -ovc xvid -stereo 0 -xvidencopts bitrate=400:max_bframes=0:quant_type=h263:me_quality=0 -oac lavc -lavcopts acodec=mp2:abitrate=128
1-2-2=-ofps 15 -vf-add scale=160:120 -vf-add expand=160:128:-1:-1:1 -srate 44100 -ovc xvid -stereo 0 -xvidencopts bitrate=400:max_bframes=0:quant_type=h263:me_quality=0 -oac lavc -lavcopts acodec=mp2:abitrate=128
1-2-3=-ofps 15 -vf-add scale=160:90  -vf-add expand=160:128:-1:-1:1 -srate 44100 -ovc xvid -stereo 0 -xvidencopts bitrate=400:max_bframes=0:quant_type=h263:me_quality=0 -oac lavc -lavcopts acodec=mp2:abitrate=128
2-2-1=-ofps 15 -vf-add scale=160:128 -vf-add expand=160:128:-1:-1:1 -srate 44100 -ovc xvid -stereo 0 -xvidencopts bitrate=300:max_bframes=0:quant_type=h263:me_quality=0 -oac lavc -lavcopts acodec=mp2:abitrate=128
2-2-2=-ofps 15 -vf-add scale=160:120 -vf-add expand=160:128:-1:-1:1 -srate 44100 -ovc xvid -stereo 0 -xvidencopts bitrate=300:max_bframes=0:quant_type=h263:me_quality=0 -oac lavc -lavcopts acodec=mp2:abitrate=128
2-2-3=-ofps 15 -vf-add scale=160:90  -vf-add expand=160:128:-1:-1:1 -srate 44100 -ovc xvid -stereo 0 -xvidencopts bitrate=300:max_bframes=0:quant_type=h263:me_quality=0 -oac lavc -lavcopts acodec=mp2:abitrate=128
3-2-1=-ofps 15 -vf-add scale=160:128 -vf-add expand=160:128:-1:-1:1 -srate 44100 -ovc xvid -stereo 0 -xvidencopts bitrate=250:max_bframes=0:quant_type=h263:me_quality=0 -oac lavc -lavcopts acodec=mp2:abitrate=128
3-2-2=-ofps 15 -vf-add scale=160:120 -vf-add expand=160:128:-1:-1:1 -srate 44100 -ovc xvid -stereo 0 -xvidencopts bitrate=250:max_bframes=0:quant_type=h263:me_quality=0 -oac lavc -lavcopts acodec=mp2:abitrate=128
3-2-3=-ofps 15 -vf-add scale=160:90  -vf-add expand=160:128:-1:-1:1 -srate 44100 -ovc xvid -stereo 0 -xvidencopts bitrate=250:max_bframes=0:quant_type=h263:me_quality=0 -oac lavc -lavcopts acodec=mp2:abitrate=128
[FilePath]
SounceFile=Z:\home\zhs\Видео
TargetFile=Z:\home\zhs\Видео\1
[Lauguages]

Это опции к mencoder или какому-то конвертеру, очень на него похожему.
Во всяком случае все подошли.
Отсюда сразу подставил к команде нужное(даже два) и видео пошло!!! Улыбка

Если кто будет пробовать конвертировать видео для проигрывателей в линукс пусть первым делом устанавливает под вайном заводское ПО и потрошит .ini файлы.

А опции для проигрывателя Explay C40 таковы:
Среднее качество:
Код:
mencoder исходное_видео.avi -o готовое_видео.avi -ofps 15 -vf-add scale=160:90  -vf-add expand=160:128:-1:-1:1 -srate 44100 -ovc xvid -stereo 0 -xvidencopts bitrate=300:max_bframes=0:quant_type=h263:me_quality=0 -oac lavc -lavcopts acodec=mp2:abitrate=128
И высокое качество:
Код:
mencoder исходное_видео.avi -o готовое_видео.avi -ofps 15 -vf-add scale=160:120 -vf-add expand=160:128:-1:-1:1 -srate 44100 -ovc xvid -stereo 0 -xvidencopts bitrate=400:max_bframes=0:quant_type=h263:me_quality=0 -oac lavc -lavcopts acodec=mp2:abitrate=128
Записан
Zhook
Постоялец
***

Карма: +20/-0
Offline Offline

Сообщений: 137


« Ответ #4 : 15 Июнь 2012, 16:07:27 »

Это должно многим облегчить жизнь. Улыбка
Прим. Инструкция внутри.Вместо cd можно просто открывать папку в терминале.
Если кто может сказать какие минусы - пожалуйста. Улыбка

http://www.ovrload.ru/files/explay-c40_converter.tar_e41d1559a309feb554898fe66205602c.bz2
Записан
Zhook
Постоялец
***

Карма: +20/-0
Offline Offline

Сообщений: 137


« Ответ #5 : 28 Июнь 2012, 14:08:56 »

Вот ссылка на тему со скриптом(теперь работает и в пакетном режиме):
http://forum.ubuntu.ru/index.php?topic=194678.msg1474909#msg1474909
Проблема в принципе решена!
Записан
duangedrebpar
Новичок
*

Карма: +0/-0
Offline Offline

Пол: Мужской
Сообщений: 1

Всё хорошо!


WWW
« Ответ #6 : 23 Январь 2013, 08:13:05 »

Верный ответ
Записан

Всё хорошо!
Страниц: [1]   Вверх
Печать
 
Перейти в:  

Powered by SMF 1.1.21 | SMF © 2006-2009, Simple Machines

Страница сгенерирована за 0.088 секунд. Запросов: 20.